¡Saludos!

Hace mucho que intento devolverle la vida al blog, pero me he rendido. Las redes sociales y el microbloging lo mataron. No lo voy a cerrar, pero a partir de ahora lo voy a usar de otra forma, lo voy a convertir en una vitrina digital de desafíos personales.


Conseguir logros no es algo que solo se pueda hacer en los videojuegos. La vida real ofrece pequeños desafíos que podemos ir desbloqueando, como ver una película, completar un videojuego o terminar una carrera, y que por insignificantes que os puedan parecer a los demás, los míos significan mucho para mi.


Dicho esto, te doy la bienvenida a este lugar, web, blog, sitio.

lunes, 23 de agosto de 2010

Mi primer FullHD en Youtube

Mi primer video en FullHD subido a Youtube, disparando una pistola de airsoft (una Desert Eagle de Tokyo Marui) en el pantano de la Fuensanta, Albacete.
Estaba mal ajustada, por lo que a veces salían 2 bolas, pero ya está arreglada :-P
Gracias a HelenBalzary por usar su Canon 5D Mark II para grabarme.



En total ha tardado unos 180 min la subida y el procesado.
El video está grabado en FullHD (1920x1080) son 01 min 12 seg y pesa 404Mb.

Las características completas:

General
Complete name : F:\MVI_0323.MOV
Format : MPEG-4
File size : 405 MiB
Duration : 1mn 12s
Overall bit rate : 46.8 Mbps
Video #1
Format : AVC
Format/Info : Advanced Video Codec
Format profile : Baseline@L5.0
Format settings, CABAC : No
Format settings, ReFrames : 1 frame
Codec ID : avc1
Codec ID/Info : Advanced Video Coding
Duration : 1mn 12s
Bit rate mode : Variable
Bit rate : 45.2 Mbps
Width : 1 920 pixels
Height : 1 088 pixels
Display aspect ratio : 16/9
Frame rate mode : Constant
Frame rate : 25.000 fps
Resolution : 24 bits
Colorimetry : 4:2:0
Scan type : Progressive
Bits/(Pixel*Frame) : 0.866
Stream size : 392 MiB (97%)
Audio #2
Format : PCM
Format settings, Endianness : Little
Format settings, Sign : Signed
Codec ID : sowt
Duration : 1mn 12s
Bit rate mode : Constant
Bit rate : 1 536 Kbps
Channel(s) : 2 channels
Sampling rate : 48.0 KHz
Resolution : 16 bits
Stream size : 13.3 MiB (3%)

Por cierto, me acabo de enterar que Youtube ha implementado un editor de video tipo Movie Maker. No lo he usado pero lo he visto por encima y está bastante bien, aquí os dejo el link:
http://www.youtube.com/editor

Un Saludo!
Related Posts Plugin for WordPress, Blogger...